The Front Runner 2019 DVDRip XviD AC3 LLG

seeders: 3 leechers: 1 updated: unknown
Added on by LifeLong1 1,968 in Movies > DVD ISO
Torrent verified. Downloaded 363 times.
Infohash 65733eb7f6c570b8e72caf9f95ca643e57cad8bb
0
0
Cover
The Front Runner (2018) R
Runtime 113 min

Video Other — Other — Unknown
Audio English

Directed by Jason Reitman
Written by Matt Bai, Jay Carson, Jason Reitman, Matt Bai (based on the book "All The Truth Is Out" by)

Genres Drama, History, Thriller

American Senator Gary Hart's presidential campaign in 1988 is derailed when he's caught in a scandalous love affair.

Also available as:

Description

Quote



******************************Thumbnail:**********************



******************************Screenshots:********************

Screenshot 1

Screenshot 2

Screenshot 3

Screenshot 4

Screenshot 5


******************************************************

The.Front.Runner.2019.DVDRip.XviD.AC3.LLG.mp4
Format                                   : MPEG-4
Format profile                           : Base Media
Codec ID                                 : isom (isom/iso2/avc1/mp41)
File size                                : 1.02 GiB
Duration                                 : 1 h 53 min
Overall bit rate mode                    : Variable
Overall bit rate                         : 1 287 kb/s
Writing application                      : Lavf57.83.100

Video
ID                                       : 1
Format                                   : AVC
Format/Info                              : Advanced Video Codec
Format profile                           : Main@L3
Format settings                          : CABAC / 1 Ref Frames
Format settings, CABAC                   : Yes
Format settings, RefFrames               : 1 frame
Codec ID                                 : avc1
Codec ID/Info                            : Advanced Video Coding
Duration                                 : 1 h 53 min
Bit rate mode                            : Variable
Bit rate                                 : 899 kb/s
Maximum bit rate                         : 2 700 kb/s
Width                                    : 720 pixels
Height                                   : 384 pixels
Display aspect ratio                     : 1.85:1
Frame rate mode                          : Constant
Frame rate                               : 23.976 (23976/1000) FPS
Color space                              : YUV
Chroma subsampling                       : 4:2:0
Bit depth                                : 8 bits
Scan type                                : Progressive
Bits/(Pixel*Frame)                       : 0.136
Stream size                              : 730 MiB (70%)
Codec configuration box                  : avcC

Audio
ID                                       : 2
Format                                   : AC-3
Format/Info                              : Audio Coding 3
Commercial name                          : Dolby Digital
Codec ID                                 : ac-3
Duration                                 : 1 h 53 min
Bit rate mode                            : Constant
Bit rate                                 : 384 kb/s
Channel(s)                               : 6 channels
Channel layout                           : L R C LFE Ls Rs
Sampling rate                            : 48.0 kHz
Frame rate                               : 31.250 FPS (1536 SPF)
Bit depth                                : 16 bits
Compression mode                         : Lossy
Stream size                              : 312 MiB (30%)
Service kind                             : Complete Main
Default                                  : Yes
Alternate group                          : 1


********************************************************



Torrent name Size Files Age Seed Leech
2.96 GB13 days ago43
5.55 GB99 days ago72
1.37 GB321 days ago10
1.37 GB322 days ago301

Sharing Widget

To share this torrent inserting the provided BBCode into comments, status messages, forum posts or your signature.